News - Logiciels Libres

mediainfo : tout savoir sur les fichiers multimédias !

Par , le dans Logiciels Libres - 3 Commentaires
mediainfo : tout savoir sur les fichiers multimédias !
Bonjour à tous,

Aujourd'hui, petite découverte du logiciel mediainfo.

En effet, ayant récupéré un MP3 avec youtube-dl via l'alias youtube2mp3 lançant youtube-dl -t -x --audio-format mp3 --audio-quality 0, je voulais voir sa qualité (son bitrate). SMPlayer me donnait 32kbps, la commande file 64kpbs et Clémentine 136kpbs.

Qui disait vrai ? J'ai décidé de trancher avec mediainfo ! Et Clémentine disait vrai !

mediainfo dispose sous Gentoo (et Calculate Linux) d'une interface en ligne de commande et graphique !

Code TEXT :
[I] media-video/mediainfo
     Available versions:  0.7.94{tbz2} ~0.7.95 ~0.7.96 {curl mms wxwidgets}
     Installed versions:  0.7.94{tbz2}(23:23:56 21/05/2017)(wxwidgets -curl -mms)
     Homepage:            http://mediaarea.net/mediainfo/ https://github.com/MediaArea/MediaInfo
     Description:         MediaInfo supplies technical and tag information about media files
 


Pour l'installer :

Code BASH :
emerge media-video/mediainfo


Une fois fait, il s'exécute soit en faisant un clic droit sur le fichier concerné (et ça ouvre l'interface graphique) ou en lançant la commande mediainfo suivie du nom du fichier. Voici un exemple avec mon fichier à 136kbps dont j'ai parlé avant :

Code TEXT :
mediainfo test0.mp3 
E: File read error
General
Complete name                            : test0.mp3
Format                                   : MPEG Audio
File size                                : 435 KiB
Duration                                 : 26 s 253 ms
Overall bit rate mode                    : Variable
Overall bit rate                         : 136 kb/s
Writing library                          : LAME3.99.5
major_brand                              : isom
minor_version                            : 512
compatible_brands                        : isomiso2mp41
Audio
Format                                   : MPEG Audio
Format version                           : Version 1
Format profile                           : Layer 3
Mode                                     : Joint stereo
Mode extension                           : MS Stereo
Duration                                 : 26 s 253 ms
Bit rate mode                            : Variable
Bit rate                                 : 136 kb/s
Channel(s)                               : 2 channels
Sampling rate                            : 44.1 kHz
Compression mode                         : Lossy
Stream size                              : 435 KiB (100%)
Writing library                          : LAME3.99.5
 


On voit bien que le débit est de 136kpbs, ce qui a trompé les autres lecteurs c'est le débit variable.

Voici un exemple avec une chanson ripée depuis Audacity il y a un bon moment, sur laquelle j'ai renseigné des "TAG" MP3 :

Code :
 mediainfo Cabballero\ -\ Hymn.mp3 
E: File read error
General
Complete name                            : Cabballero - Hymn.mp3
Format                                   : MPEG Audio
File size                                : 9.05 MiB
Duration                                 : 3 min 56 s
Overall bit rate mode                    : Constant
Overall bit rate                         : 320 kb/s
Album                                    : Mixxx90
Album/Performer                          : Mixxx90
Part/Position                            : 1
Track name                               : Hymn
Track name/Position                      : 1
Performer                                : Cabballero
Original/Performer                       : Mixxx90
Composer                                 : Mixxx90
Genre                                    : Eurodance
Recorded date                            : 1994
Writing library                          : LAME3.98r
Cover                                    : Yes
Cover description                        : 00_musicIcon.png
Cover type                               : Cover (front)
Cover MIME                               : image/png
Comment                                  : .
Audio
Format                                   : MPEG Audio
Format version                           : Version 1
Format profile                           : Layer 3
Duration                                 : 3 min 56 s
Bit rate mode                            : Constant
Bit rate                                 : 320 kb/s
Channel(s)                               : 2 channels
Sampling rate                            : 44.1 kHz
Compression mode                         : Lossy
Stream size                              : 9.01 MiB (100%)
Writing library                          : LAME3.98r
Encoding settings                        : -m s -V 4 -q 0 -lowpass 20.5


Cela fonctionne aussi avec un fichier vidéo, où on a en plus des infos sur la piste audio, des infos sur la vidéo. Voici un test d'une vidéo faite avec ma vieille Caméra :

Code TEXT :
 mediainfo test1.mp4 
General
Complete name                            : test1.mp4
Format                                   : MPEG-4
Format profile                           : Base Media / Version 2
Codec ID                                 : mp42 (isom/mp42)
File size                                : 1.29 GiB
Duration                                 : 15 min 25 s
Overall bit rate                         : 12.0 Mb/s
Encoded date                             : UTC 2017-06-05 08:19:34
Tagged date                              : UTC 2017-06-05 08:19:34
Video
ID                                       : 1
Format                                   : AVC
Format/Info                              : Advanced Video Codec
Format profile                           : Baseline@L3.1
Format settings, CABAC                   : No
Format settings, ReFrames                : 1 frame
Format settings, GOP                     : M=1, N=30
Codec ID                                 : avc1
Codec ID/Info                            : Advanced Video Coding
Duration                                 : 15 min 24 s
Source duration                          : 15 min 24 s
Bit rate                                 : 11.7 Mb/s
Width                                    : 1 280 pixels
Height                                   : 720 pixels
Display aspect ratio                     : 16:9
Frame rate mode                          : Variable
Frame rate                               : 29.267 FPS
Minimum frame rate                       : 20.595 FPS
Maximum frame rate                       : 31.668 FPS
Color space                              : YUV
Chroma subsampling                       : 4:2:0
Bit depth                                : 8 bits
Scan type                                : Progressive
Bits/(Pixel*Frame)                       : 0.434
Stream size                              : 1.26 GiB (98%)
Source stream size                       : 1.26 GiB (98%)
Title                                    : VideoHandle
Language                                 : English
Encoded date                             : UTC 2017-06-05 08:19:34
Tagged date                              : UTC 2017-06-05 08:19:34
mdhd_Duration                            : 924952
Audio
ID                                       : 2
Format                                   : AAC
Format/Info                              : Advanced Audio Codec
Format profile                           : LC
Codec ID                                 : 40
Duration                                 : 15 min 25 s
Bit rate mode                            : Constant
Bit rate                                 : 256 kb/s
Channel(s)                               : 2 channels
Channel positions                        : Front: L R
Sampling rate                            : 48.0 kHz
Frame rate                               : 46.875 FPS (1024 spf)
Compression mode                         : Lossy
Stream size                              : 28.2 MiB (2%)
Title                                    : SoundHandle
Language                                 : English
Encoded date                             : UTC 2017-06-05 08:19:34
Tagged date                              : UTC 2017-06-05 08:19:34
 



Voici l'ensemble en action en vidéo :

N'hésitez pas à sélectionner la qualité HD en 720p ou 1080p !



:magic: